If Loving You Is Wrong S04E09 HDTV x264-CRiMSON[rartv]

seeders: 1
leechers: 0
updated:
Added by z0n3212.58M in TV
Torrent verified. Downloaded 6,213 times.

DownloadFast Safe Anonymous
movies, software, shows...
Available in versions: 720p480pHDTVWEBRip
If Loving You Is Wrong S04E09 HDTV x264-CRiMSON[rartv] (Size: 267.28 MB)
  If.Loving.You.Is.Wrong.S04E09.HDTV.x264-CRiMSON.mkv 267.28 MB
  rarbg.com.txt 34 bytes
  If.Loving.You.Is.Wrong.S04E09.HDTV.x264-CRiMSON.nfo 335 bytes

Description


http://rarbg.to
If.Loving.You.Is.Wrong.S04E09.HDTV.x264-CRiMSON[rartv]

image
Screens :

image
Mediainfo :

Video
ID : 1
Format : AVC
Format/Info : Advanced Video Codec
Format profile : [email protected]
Format settings, CABAC : Yes
Format settings, ReFrames : 5 frames
Codec ID : V_MPEG4/ISO/AVC
Duration : 41mn 58s
Bit rate : 751 Kbps
Width : 720 pixels
Height : 404 pixels
Display aspect ratio : 16:9
Frame rate mode : Constant
Frame rate : 23.976 (24000/1001) fps
Color space : YUV
Chroma subsampling : 4:2:0
Bit depth : 8 bits
Scan type : Progressive
Bits/(Pixel*Frame) : 0.108
Stream size : 225 MiB (84%)
Writing library : x264 core 148 r2692 64f4e24
Encoding settings : cabac=1 / ref=5 / deblock=1:0:0 / analyse=0x3:0x113 / me=umh / subme=8 / psy=1 / psy_rd=1.00:0.15 / mixed_ref=1 / me_range=16 / chroma_me=1 / trellis=1 / 8x8dct=1 / cqm=0 / deadzone=21,11 / fast_pskip=1 / chroma_qp_offset=-3 / threads=12 / lookahead_threads=2 / sliced_threads=0 / nr=0 / decimate=1 / interlaced=0 / bluray_compat=0 / constrained_intra=0 / bframes=3 / b_pyramid=2 / b_adapt=2 / b_bias=0 / direct=3 / weightb=1 / open_gop=0 / weightp=2 / keyint=240 / keyint_min=23 / scenecut=40 / intra_refresh=0 / rc_lookahead=50 / rc=crf / mbtree=1 / crf=19.0 / qcomp=0.60 / qpmin=0 / qpmax=69 / qpstep=4 / ip_ratio=1.40 / aq=1:1.00
Language : English
Default : Yes
Forced : No
Color range : Limited
Matrix coefficients : BT.709

Audio
ID : 2
Format : AAC
Format/Info : Advanced Audio Codec
Format profile : LC
Codec ID : A_AAC
Duration : 41mn 57s
Bit rate : 137 Kbps
Channel(s) : 2 channels
Channel positions : Front: L R
Sampling rate : 48.0 KHz
Frame rate : 46.875 fps (1024 spf)
Compression mode : Lossy
Delay relative to video : 9ms
Stream size : 41.2 MiB (15%)
Default : Yes
Forced : No

Related Torrents

torrent name size files age seed leech

Sharing Widget


Download torrent
267.28 MB
seeders:1
leechers:0
If Loving You Is Wrong S04E09 HDTV x264-CRiMSON[rartv]



To share this torrent use the code below and insert it into comments, status messages, forum posts or your signature.

Torrent: If Loving You Is Wrong S04E09 HDTV x264-CRiMSON[rartv]

Trackers

tracker name
udp://tracker.openbittorrent.com:80/announce
udp://tracker.coppersurfer.tk:6969/announce
udp://glotorrents.pw:6969/announce
http://explodie.org:6969/announce
udp://tracker.opentrackr.org:1337/announce
µTorrent compatible trackers list

Locations

name
KickassTorrents
Torrent hash: 600602FB5AB906257518394B32A711C5AC665F0C

All Comments

audio
9/10
video
9/10
please, leave only comments related to that torrent
Sign In

audio: 9video: 10
Thanks.
thanks man my really loves the show keep up great work
audio: 10video: 10
Sap! Hey just know that Zambia is feeling you for this! Keep it up! Levy here!
audio: 10video: 10
Dankie z0n321 keep t cumin plzzz yessmileclap
tnx guys well appreciated
thank you thank you so much .. very much appreciated
I like that!!!
Show More All

User Opinions

Maxx10110.36K, FileHippo-ski10.25K, donarleon4844, greyhat977, GeeFlex889, VrikiYiacoCoe514, supervisor467, YaGuN RyDeR301, psycho34226, linc_379157 ... And 31 more
Report a bug Open chat
Sitemap