Keeping Up With the Kardashians S12E04 HDTV x264-CRiMSON[rartv]

seeders: 128
leechers: 7
updated:
Added by z0n3212.57M in TV
Torrent verified. Downloaded 4,308 times.

DownloadFast Safe Anonymous
movies, software, shows...
Available in versions: 1080p720pHDTVWEBRipx264
Keeping Up With the Kardashians S12E04 HDTV x264-CRiMSON[rartv] (Size: 313.96 MB)
  Keeping.Up.With.the.Kardashians.S12E04.HDTV.x264-CRiMSON.mkv 313.96 MB
  rarbg.com.txt 34 bytes
  Keeping.Up.With.the.Kardashians.S12E04.HDTV.x264-CRiMSON.nfo 329 bytes

Description


http://rarbg.to
Keeping.Up.With.the.Kardashians.S12E04.HDTV.x264-CRiMSON[rartv]

image
Screens :

image
Mediainfo :

Video
ID : 1
Format : AVC
Format/Info : Advanced Video Codec
Format profile : [email protected]
Format settings, CABAC : Yes
Format settings, ReFrames : 5 frames
Codec ID : V_MPEG4/ISO/AVC
Duration : 42mn 24s
Bit rate : 921 Kbps
Width : 720 pixels
Height : 404 pixels
Display aspect ratio : 16:9
Frame rate mode : Constant
Frame rate : 29.970 (30000/1001) fps
Color space : YUV
Chroma subsampling : 4:2:0
Bit depth : 8 bits
Scan type : Progressive
Bits/(Pixel*Frame) : 0.106
Stream size : 279 MiB (89%)
Writing library : x264 core 148 r2692 64f4e24
Encoding settings : cabac=1 / ref=5 / deblock=1:0:0 / analyse=0x3:0x113 / me=umh / subme=8 / psy=1 / psy_rd=1.00:0.15 / mixed_ref=1 / me_range=16 / chroma_me=1 / trellis=1 / 8x8dct=1 / cqm=0 / deadzone=21,11 / fast_pskip=1 / chroma_qp_offset=-3 / threads=12 / lookahead_threads=2 / sliced_threads=0 / nr=0 / decimate=1 / interlaced=0 / bluray_compat=0 / constrained_intra=0 / bframes=3 / b_pyramid=2 / b_adapt=2 / b_bias=0 / direct=3 / weightb=1 / open_gop=0 / weightp=2 / keyint=300 / keyint_min=29 / scenecut=40 / intra_refresh=0 / rc_lookahead=50 / rc=crf / mbtree=1 / crf=21.0 / qcomp=0.60 / qpmin=0 / qpmax=69 / qpstep=4 / ip_ratio=1.40 / aq=1:1.00
Language : English
Default : Yes
Forced : No
Color range : Limited
Matrix coefficients : BT.709

Audio
ID : 2
Format : AAC
Format/Info : Advanced Audio Codec
Format profile : LC
Codec ID : A_AAC
Duration : 42mn 24s
Bit rate : 111 Kbps
Channel(s) : 2 channels
Channel positions : Front: L R
Sampling rate : 48.0 KHz
Frame rate : 46.875 fps (1024 spf)
Compression mode : Lossy
Delay relative to video : 9ms
Stream size : 33.7 MiB (11%)
Default : Yes
Forced : No

Related Torrents

torrent name size files age seed leech

Sharing Widget


Download torrent
313.96 MB
seeders:93
leechers:8
Keeping Up With the Kardashians S12E04 HDTV x264-CRiMSON[rartv]



To share this torrent use the code below and insert it into comments, status messages, forum posts or your signature.

Torrent: Keeping Up With the Kardashi...E04 HDTV x264-CRiMSON[rartv]

Trackers

tracker name
udp://tracker.openbittorrent.com:80/announce
http://retracker.krs-ix.ru/announce
udp://tracker.coppersurfer.tk:6969/announce
udp://glotorrents.pw:6969/announce
http://mgtracker.org:2710/announce
http://tracker1.wasabii.com.tw:6969/announce
http://thetracker.org/announce
http://tracker.mg64.net:6881/announce
http://explodie.org:6969/announce
udp://tracker.opentrackr.org:1337/announce
µTorrent compatible trackers list

Locations

name
KickassTorrents
Torrent hash: B9377884B2225A2C065774D2A76CDB491771B272

All Comments

audio
9/10
video
9/10
please, leave only comments related to that torrent
Sign In

audio: 9video: 9
Works fine. Thankyou...
audio: 10video: 10
Thank-you!
audio: 10video: 10
Great Quality Thanks ....thumb_up
audio: 10video: 10
great compression great quality

User Opinions

sookie10047.01K, workmates14.19K, yvie3311.95K, Ayuu6011, ivette9454013, -Gia-3311, Dr_Moe1175, ShadowTek653, gregnev260, vishu911.1985228 ... And 53 more
cmanpaok!261
Report a bug Open chat
Sitemap